<?xml version="1.0" standalone="no"?>
<!DOCTYPE svg PUBLIC "-//W3C//DTD SVG 1.1//EN" "http://www.w3.org/Graphics/SVG/1.1/DTD/svg11.dtd" >
<svg xmlns="http://www.w3.org/2000/svg">
<metadata>
<json>
<![CDATA[
{
	"fontFamily": "linx-icons",
	"majorVersion": 1,
	"minorVersion": 0,
	"version": "Version 1.0",
	"fontId": "linx-icons",
	"psName": "linx-icons",
	"subFamily": "Regular",
	"fullName": "linx-icons",
	"description": "Font generated by IcoMoon."
}
]]>
</json>
</metadata>
<defs>
<font id="linx-icons" horiz-adv-x="1024">
<font-face units-per-em="1024" ascent="960" descent="-64" />
<missing-glyph horiz-adv-x="1024" />
<glyph unicode="&#x20;" horiz-adv-x="0" d="" />
<glyph unicode="&#x30;" glyph-name="leitor-codigo-de-barras" data-tags="leitor-codigo-de-barras" d="M808 652h50v204h-202v-52h152zM216 804h152v52h-202v-204h50zM368 220h-152v152h-50v-204h202zM858 372h-50v-152h-152v-52h202zM340 702h-48v-382h100v382zM438 702h50v-382h-50zM586 320h48v382h-98v-382zM682 702h50v-382h-50z" />
<glyph unicode="&#x31;" glyph-name="hamburger" data-tags="hamburger" d="M182 664h660v152h-660zM234 766h556v-52h-556zM182 436h660v152h-660zM234 538h556v-52h-556zM182 208h660v152h-660zM234 310h556v-52h-556z" />
<glyph unicode="&#x61;" glyph-name="mais" data-tags="mais" d="M538 752h-52v-214h-214v-52h214v-214h52v214h214v52h-214z" />
<glyph unicode="&#x62;" glyph-name="menos" data-tags="menos" d="M354 538h316v-52h-316z" />
<glyph unicode="&#x63;" glyph-name="check" data-tags="check" d="M760 652l-36 34-288-288-136 136-36-36 172-172z" />
<glyph unicode="&#x64;" glyph-name="no" data-tags="no" d="M360 324l152 152 152-152 36 36-152 152 152 152-36 36-152-152-152 152-36-36 152-152-152-152z" />
<glyph unicode="&#x65;" glyph-name="check2" data-tags="check2" d="M776 770h-48l-274-320-78 78-36-36 116-118 268 314v-394h-424v424h296v52h-348v-528h528z" />
<glyph unicode="&#x66;" glyph-name="no2" data-tags="no2" d="M794 772h-62v-2l-204-220-72 74-36-36 74-74-78-84 36-36 78 84 84-84 36 36-86 84 180 194v-412h-426v426h298v50h-348v-526h526z" />
<glyph unicode="&#x67;" glyph-name="proibido" data-tags="proibido" d="M336 292c18-14 38-26 58-36 8-4 14-6 20-8 8-4 18-6 26-8 24-6 48-10 72-10 156 0 282 126 282 282 0 90-44 176-118 230l-26-36-318-340c-32 42-52 92-52 146 0 128 104 232 232 232 18 0 36-2 54-8l10 50c-20 6-42 8-64 8-156 0-282-126-282-282 0-86 38-166 106-220zM684 666c38-42 60-96 60-154 0-128-104-230-232-230-20 0-40 2-60 6-6 2-14 4-20 8-6 2-10 4-16 6-16 8-32 18-48 28z" />
<glyph unicode="&#x68;" glyph-name="atualizar" data-tags="atualizar" d="M500 770c64 0 124-24 170-66l32 38c-56 52-126 80-202 80-170 0-306-138-306-308h50c0 142 114 256 256 256zM750 666h-152v-50h204v202h-52zM494 256c-62 0-124 26-168 66l-34-38c56-50 126-78 202-78 170 0 308 136 308 306h-52c0-142-114-256-256-256zM396 414h-202v-204h50v152h152z" />
<glyph unicode="&#x69;" glyph-name="adicionar-pagina" data-tags="adicionar-pagina" d="M690 436h-52v-102h-100v-50h100v-102h52v102h100v50h-100zM284 790h354v-278h52v330h-456v-558h228v50h-178z" />
<glyph unicode="&#x6a;" glyph-name="configs" data-tags="configs" d="M700 636l-54 56 118 120-188 56-140-118v-152l-174-144 30-40 194 160v152l100 86 82-26-96-96 128-124 98 100 32-76-86-106h-174l-288-272-110 130-40-30 144-174 314 296h180l118 146-70 178z" />
<glyph unicode="&#x6b;" glyph-name="editar" data-tags="editar" d="M256 426v-210h-150v-48h390l34 34-122 126-36-36 74-76h-140v190l350 372 190-190-258-282 36-32 290 318-258 258z" />
<glyph unicode="&#x6c;" glyph-name="apagar" data-tags="apagar" d="M242 448v-124l90-90h-216v-50h400v50h-112l-112 112v78l154 154 130-132 36 36-130 132 164 166 152-152v-80l-270-270 36-36 286 284v124l-204 202z" />
<glyph unicode="&#x6d;" glyph-name="lixeira" data-tags="lixeira" d="M386 636h50v-356h-50zM486 636h52v-356h-52zM588 636h50v-356h-50zM614 838h-204v-76h-176v-50h50v-558h456v482h-50v-432h-356v508h128v76h100v-76h228v50h-176z" />
<glyph unicode="&#x6e;" glyph-name="impressora" data-tags="impressora" d="M744 870h-456v-76h-128v-304h152v-304h406v354h-506v204h76v-76h456v76h74v-204h-50v-50h102v304h-126v76zM364 490h304v-254h-304zM692 718h-354v102h354zM414 338h202v-50h-202zM414 440h202v-52h-202z" />
<glyph unicode="&#x6f;" glyph-name="funil" data-tags="funil" d="M234 784h50v-190l152-126v-342l152 114v228l152 126v114h-50v-92l-152-126v-226l-52-38v264l-152 126v168h456v50h-556z" />
<glyph unicode="&#x70;" glyph-name="busca" data-tags="busca" d="M436 864c-152 0-276-124-276-278 0-152 124-278 276-278 76 0 146 30 200 82 50 54 78 122 78 196 0 154-126 278-278 278zM598 426c-44-42-102-68-162-68-128 0-228 104-228 228 0 126 100 228 228 228 126 0 228-102 228-228 0-62-26-116-66-160zM330 574h-52c0-88 72-158 158-158v50c-58 0-106 48-106 108zM824 140l-178 182 36 34 178-180z" />
<glyph unicode="&#x71;" glyph-name="lupa-zoom" data-tags="lupa-zoom" d="M436 864c-152 0-276-124-276-278 0-152 124-278 276-278 76 0 146 30 200 82 50 54 78 122 78 196 0 154-126 278-278 278zM598 426c-44-42-102-68-162-68-128 0-228 104-228 228 0 126 100 228 228 228 126 0 228-102 228-228 0-62-26-116-66-160zM824 140l-178 182 36 34 178-180zM460 686h-50v-74h-76v-52h76v-76h50v76h74v52h-74z" />
<glyph unicode="&#x72;" glyph-name="caixa" data-tags="caixa" d="M582 700c-20-4-38-10-56-18l-4 16 12 4-16 50-72-24 14-48 12 4 8-26h2c-14-8-24-16-36-26l-16 16 10 10-36 36-54-54 36-36 8 8 18-16c-12-12-20-24-28-38l-20 10 6 12-44 24-36-68 44-24 6 12 20-10c-16-40-26-82-26-126 0-28 4-58 12-86l48 14c-6 24-10 48-10 72 0 134 96 246 228 266l20 4v126h170v-540h-540v170h34v50h-84v-270h642v640h-272z" />
<glyph unicode="&#x73;" glyph-name="cifra" data-tags="cifra" d="M636 486v-160h-298v-50h136v-100h50v100h164v262h-300v160h298v50h-166v100h-50v-100h-134v-262z" />
<glyph unicode="&#x74;" glyph-name="cedula" data-tags="cedula" d="M568 750l160-158-348-348-194 194 378 376-36 36-412-412 264-266 420 420-160 158 22 24 182-182-384-384 36-36 420 420-254 252zM380 594c-20-20-30-46-30-76 0-28 10-54 30-74s46-30 74-30c30 0 56 10 76 30 40 42 40 108 0 150-40 40-110 40-150 0zM494 558c22-22 22-56 0-78-20-20-58-20-78 0-10 10-16 24-16 38 0 16 6 30 16 40s24 16 40 16c14 0 28-6 38-16z" />
<glyph unicode="&#x75;" glyph-name="cartao" data-tags="cartao" d="M840 602l-336-338h-148l-48 46 394 394 68-68 36 36-140 140h-182l-374-376 224-224h190l8 8 114 116 244 244-34 36zM182 436l324 324h108l-378-378zM508 374l-76-76-34 36 74 76z" />
<glyph unicode="&#x76;" glyph-name="cart-vazio" data-tags="cart-vazio" d="M756 700h86l-50-196h-416l-30 284h40v50h-228v-50h136l48-428h416v50h-372l-4 44h450l74 296h-150zM516 246c0 42-34 78-78 78s-78-36-78-78c0-44 34-80 78-80s78 36 78 80zM410 246c0 14 12 28 28 28s28-14 28-28c0-16-12-28-28-28s-28 12-28 28zM682 166c42 0 78 36 78 80 0 42-36 78-78 78-44 0-78-36-78-78 0-44 34-80 78-80zM682 274c16 0 28-14 28-28 0-16-12-28-28-28s-28 12-28 28c0 14 12 28 28 28z" />
<glyph unicode="&#x77;" glyph-name="cart-adicionar" data-tags="cart-adicionar" d="M756 700h86l-50-196h-416l-30 284h40v50h-228v-50h136l48-428h416v50h-372l-4 44h450l74 296h-150zM516 246c0 42-34 78-78 78s-78-36-78-78c0-44 34-80 78-80s78 36 78 80zM410 246c0 14 12 28 28 28s28-14 28-28c0-16-12-28-28-28s-28 12-28 28zM760 246c0 42-36 78-78 78-44 0-78-36-78-78 0-44 34-80 78-80 42 0 78 36 78 80zM654 246c0 14 12 28 28 28s28-14 28-28c0-16-12-28-28-28s-28 12-28 28zM544 558h50v72h72v50h-72v72h-50v-72h-72v-50h72z" />
<glyph unicode="&#x78;" glyph-name="cart-cheio" data-tags="cart-cheio" d="M754 700h88l-50-196h-416l-30 284h40v50h-228v-50h136l48-428h416v52h-372l-4 42h450l74 296h-152zM516 246c0 42-34 78-78 78s-78-36-78-78c0-44 34-80 78-80s78 36 78 80zM410 246c0 14 12 28 28 28s28-14 28-28c0-16-12-28-28-28s-28 12-28 28zM760 246c0 42-36 78-78 78-44 0-78-36-78-78 0-44 34-80 78-80 42 0 78 36 78 80zM654 246c0 14 12 28 28 28 14 0 28-14 28-28 0-16-14-28-28-28-16 0-28 12-28 28zM412 600h342v-52h-342zM412 696h190v-52h-190z" />
<glyph unicode="&#x79;" glyph-name="seta-direita" data-tags="seta-direita" d="M600 646l134-134-134-134 36-36 170 170-170 170zM264 538h380v-52h-380z" />
<glyph unicode="&#x7a;" glyph-name="seta-esquerda" data-tags="seta-esquerda" d="M468 646l-34 36-170-170 170-170 34 36-134 134zM426 538h380v-52h-380z" />
</font>
</defs>
</svg>
